<?xml version="1.0" standalone="no"?>
<!DOCTYPE svg PUBLIC "-//W3C//DTD SVG 1.1//EN" "http://www.w3.org/Graphics/SVG/1.1/DTD/svg11.dtd">
<svg xmlns="http://www.w3.org/2000/svg">
<metadata>This SVG font generated by Fontastic.me</metadata>
<defs>
<font id="yii-debug" horiz-adv-x="512">
  <font-face font-family="yii-debug" font-weight="500" font-stretch="normal" units-per-em="512" panose-1="2 0 6 9 0 0 0 0 0 0" ascent="480" descent="-32" x-height="337" bbox="0 -32 512.142 480" underline-thickness="50" underline-position="-100" unicode-range="U+0061-007A"/>
    <missing-glyph/>
    <glyph glyph-name="c" unicode="c" d="M256 480c141 0 256 -115 256 -256s-115 -256 -256 -256s-256 115 -256 256s115 256 256 256zM256 8c119 0 216 97 216 216s-97 216 -216 216s-216 -97 -216 -216s97 -216 216 -216zM188 292c-26 -26 -34 -65 -23 -98l-18 6c-8 36 2 75 30 103c44 44 114 44 158 0l11 12 l17 -51l-50 17l11 11c-37 38 -98 38 -136 0zM347 254l18 -6c8 -36 -2 -75 -30 -103c-44 -44 -114 -44 -158 0l-12 -12l-16 51l50 -17l-11 -11c38 -38 98 -38 136 0c26 26 34 65 23 98z"/>
    <glyph glyph-name="d" unicode="d" d="M0 224c0 141 115 256 256 256s256 -115 256 -256s-115 -256 -256 -256s-256 115 -256 256zM472 224c0 119 -97 216 -216 216s-216 -97 -216 -216s97 -216 216 -216s216 97 216 216zM144 254l32 32l80 -80l80 80l32 -32l-112 -112z"/>
    <glyph glyph-name="f" unicode="f" d="M256 -32c-141 0 -256 115 -256 256s115 256 256 256s256 -115 256 -256s-115 -256 -256 -256zM256 440c-119 0 -216 -97 -216 -216s97 -216 216 -216s216 97 216 216s-97 216 -216 216zM226 112l-32 32l80 80l-80 80l32 32l112 -112z"/>
    <glyph glyph-name="g" unicode="g" d="M512 224c0 -141 -115 -256 -256 -256s-256 115 -256 256s115 256 256 256s256 -115 256 -256zM40 224c0 -119 97 -216 216 -216s216 97 216 216s-97 216 -216 216s-216 -97 -216 -216zM363 181c-6 -6 -16 -6 -22 0l-85 84l-85 -84c-11 -11 -27 -1 -27 11c0 4 2 8 5 11 l96 96c6 6 16 6 22 0l96 -96c6 -6 6 -16 0 -22z"/>
    <glyph glyph-name="e" unicode="e" d="M256 480c141 0 256 -115 256 -256s-115 -256 -256 -256s-256 115 -256 256s115 256 256 256zM256 8c119 0 216 97 216 216s-97 216 -216 216s-216 -97 -216 -216s97 -216 216 -216zM305 331c6 -6 6 -16 0 -22l-84 -85l84 -85c11 -11 1 -27 -11 -27c-4 0 -8 2 -11 5 l-96 96c-6 6 -6 16 0 22l96 96c6 6 16 6 22 0z"/>
    <glyph glyph-name="h" unicode="h" d="M335 326l23 -23l-79 -79l79 -79l-23 -23l-79 79l-79 -79l-23 23l79 79l-79 79l23 23l79 -79zM256 480c141 0 256 -115 256 -256s-115 -256 -256 -256s-256 115 -256 256s115 256 256 256zM256 8c119 0 216 97 216 216s-97 216 -216 216s-216 -97 -216 -216 s97 -216 216 -216z"/>
    <glyph glyph-name="i" unicode="i" d="M256 480c141 0 256 -115 256 -256s-115 -256 -256 -256s-256 115 -256 256s115 256 256 256zM256 8c119 0 216 97 216 216s-97 216 -216 216s-216 -97 -216 -216s97 -216 216 -216zM256 144c30 0 62 6 80 19v0v-19c0 -18 -36 -32 -80 -32s-80 14 -80 32v19v0 c18 -13 50 -19 80 -19zM256 191c30 0 62 7 80 20v-1v-19c0 -18 -36 -31 -80 -31s-80 13 -80 31v19v1c18 -13 50 -20 80 -20zM176 257c18 -13 50 -19 80 -19s62 6 80 19v-18c0 -18 -36 -32 -80 -32s-80 14 -80 32v18zM256 336c44 0 80 -14 80 -32v-19c0 -18 -36 -32 -80 -32 s-80 14 -80 32v19c0 18 36 32 80 32z"/>
    <glyph glyph-name="j" unicode="j" d="M256 480c141 0 256 -115 256 -256s-115 -256 -256 -256s-256 115 -256 256s115 256 256 256zM256 8c119 0 216 97 216 216s-97 216 -216 216s-216 -97 -216 -216s97 -216 216 -216zM152 296h192v-32h-192v32zM152 232h192v-32h-192v32zM152 168h192v-32h-192v32z"/>
    <glyph glyph-name="k" unicode="k" d="M256 480c141 0 256 -115 256 -256s-115 -256 -256 -256s-256 115 -256 256s115 256 256 256zM256 8c119 0 216 97 216 216s-97 216 -216 216s-216 -97 -216 -216s97 -216 216 -216zM261 204c2 -3 3 -6 4 -9h26v-35h-26c-1 -3 -2 -6 -4 -9l19 -19l-25 -24l-19 18 c-3 -2 -6 -3 -9 -4v-26h-35v26c-3 1 -6 2 -9 4l-19 -18l-24 24l18 19c-2 3 -3 6 -4 9h-26v35h26c1 3 2 6 4 9l-18 19l24 25l19 -19c3 2 6 3 9 4v26h35v-26c3 -1 6 -2 9 -4l19 19l25 -25zM210 143c19 0 35 16 35 35s-16 35 -35 35s-35 -16 -35 -35s16 -35 35 -35zM384 283 h-18c-1 -2 -2 -5 -3 -7l13 -13l-17 -17l-13 13c-2 -1 -5 -2 -7 -3v-18h-24v18c-2 1 -5 2 -7 3l-13 -13l-17 17l13 13c-1 2 -2 5 -3 7h-18v24h18c1 2 2 5 3 7l-13 13l17 17l13 -13c2 1 5 2 7 3v18h24v-18c2 -1 5 -2 7 -3l13 13l17 -17l-13 -13c1 -2 2 -5 3 -7h18v-24z M327 270c14 0 24 11 24 25s-10 24 -24 24s-25 -10 -25 -24s11 -25 25 -25z"/>
    <glyph glyph-name="l" unicode="l" d="M256 288c71 0 112 -64 112 -64s-41 -64 -112 -64s-112 64 -112 64s41 64 112 64zM256 192c18 0 32 14 32 32s-14 32 -32 32s-32 -14 -32 -32s14 -32 32 -32zM256 480c141 0 256 -115 256 -256s-115 -256 -256 -256s-256 115 -256 256s115 256 256 256zM256 8 c119 0 216 97 216 216s-97 216 -216 216s-216 -97 -216 -216s97 -216 216 -216z"/>
    <glyph glyph-name="m" unicode="m" d="M256 480c141 0 256 -115 256 -256s-115 -256 -256 -256s-256 115 -256 256s115 256 256 256zM256 8c119 0 216 97 216 216s-97 216 -216 216s-216 -97 -216 -216s97 -216 216 -216zM288 320c0 -18 -14 -32 -32 -32s-32 14 -32 32s14 32 32 32s32 -14 32 -32zM304 272v-64 h-16l16 -96h-32v-16h-32v16h-32l16 96h-16v64h96z"/>
    <glyph glyph-name="n" unicode="n" d="M256 480c141 0 256 -115 256 -256s-115 -256 -256 -256s-256 115 -256 256s115 256 256 256zM256 8c119 0 216 97 216 216s-97 216 -216 216s-216 -97 -216 -216s97 -216 216 -216zM339 345l26 -66c2 -4 3 -11 3 -15v-32c0 -4 -4 -8 -8 -8h-208c-4 0 -8 4 -8 8v32 c0 4 1 11 3 15l26 66c2 4 7 7 11 7h144c4 0 9 -3 11 -7zM176 248c0 4 -4 8 -8 8s-8 -4 -8 -8s4 -8 8 -8s8 4 8 8zM208 248c0 4 -4 8 -8 8s-8 -4 -8 -8s4 -8 8 -8s8 4 8 8zM240 248c0 4 -4 8 -8 8s-8 -4 -8 -8s4 -8 8 -8s8 4 8 8zM352 248c0 4 -4 8 -8 8s-8 -4 -8 -8 s4 -8 8 -8s8 4 8 8zM144 168v32c0 4 4 8 8 8h208c4 0 8 -4 8 -8v-32c0 -4 -4 -8 -8 -8h-208c-4 0 -8 4 -8 8zM336 184c0 -4 4 -8 8 -8s8 4 8 8s-4 8 -8 8s-8 -4 -8 -8zM224 184c0 -4 4 -8 8 -8s8 4 8 8s-4 8 -8 8s-8 -4 -8 -8zM192 184c0 -4 4 -8 8 -8s8 4 8 8s-4 8 -8 8 s-8 -4 -8 -8zM160 184c0 -4 4 -8 8 -8s8 4 8 8s-4 8 -8 8s-8 -4 -8 -8zM144 104v32c0 4 4 8 8 8h208c4 0 8 -4 8 -8v-32c0 -4 -4 -8 -8 -8h-208c-4 0 -8 4 -8 8zM336 120c0 -4 4 -8 8 -8s8 4 8 8s-4 8 -8 8s-8 -4 -8 -8zM224 120c0 -4 4 -8 8 -8s8 4 8 8s-4 8 -8 8 s-8 -4 -8 -8zM192 120c0 -4 4 -8 8 -8s8 4 8 8s-4 8 -8 8s-8 -4 -8 -8zM160 120c0 -4 4 -8 8 -8s8 4 8 8s-4 8 -8 8s-8 -4 -8 -8z"/>
    <glyph glyph-name="o" unicode="o" d="M256 480c141 0 256 -115 256 -256s-115 -256 -256 -256s-256 115 -256 256s115 256 256 256zM256 8c119 0 216 97 216 216s-97 216 -216 216s-216 -97 -216 -216s97 -216 216 -216zM208 208l96 144l-42 -112h42l-96 -144l43 112h-43z"/>
    <glyph glyph-name="a" unicode="a" d="M277 394c108 -11 192 -102 192 -213c0 -118 -95 -213 -213 -213s-213 95 -213 213c0 52 18 99 49 136l-49 49l75 75c20 -20 41 -41 62 -61c17 7 36 12 55 14v22h-11c-6 0 -11 5 -11 11v42c0 6 5 11 11 11h64c6 0 11 -5 11 -11v-42c0 -6 -5 -11 -11 -11h-11v-22zM235 459 v-22h42v22h-42zM73 366l25 -25l45 45l-25 25zM256 11c94 0 171 76 171 170s-77 171 -171 171s-171 -77 -171 -171s77 -170 171 -170zM239 278l53 -53c7 -7 9 -18 4 -26l-64 -92c-4 -7 -12 -11 -19 -11c-17 0 -26 19 -18 32l56 78l-42 42c-8 8 -8 22 0 30s22 8 30 0z"/>
    <glyph glyph-name="b" unicode="b" d="M208 136c12 19 48 67 109 145s95 116 100 113c4 -2 -12 -49 -49 -142s-61 -149 -71 -167c-17 -29 -41 -36 -70 -19s-35 41 -19 70zM1 79c0 5 -1 22 -1 27c0 77 25 143 74 196s110 80 182 80c25 0 48 -4 69 -10l-36 -44c-14 1 -25 2 -33 2c-57 0 -105 -22 -145 -65 s-60 -96 -60 -159c0 -20 5 -31 -5 -42c-9 -10 -25 -13 -36 -3c-5 5 -8 11 -9 18zM441 299c47 -53 71 -117 71 -193c0 -23 2 -35 -9 -45c-5 -4 -11 -7 -18 -7h-2c-13 2 -25 14 -23 29c1 5 1 12 1 23c0 51 -14 97 -41 137c4 9 17 46 21 56z"/>
    <glyph glyph-name="p" unicode="p" d="M17 190c-14 3 -19 13 -16 29c3 14 12 19 27 16l50 -12l-26 -41zM472 184c10 8 24 7 32 -2c11 -11 11 -22 -1 -33l-128 -115c-4 -4 -10 -6 -16 -6c-5 0 -9 2 -14 5l-146 112l-28 8l26 40l18 -4c4 -1 7 -3 8 -4l135 -104zM221 296l-178 -280c-4 -7 -11 -12 -20 -12 c-16 0 -30 21 -19 36l191 300c5 10 21 16 33 8l125 -80l115 166c6 10 21 13 32 5c13 -8 15 -18 6 -31l-128 -185c-8 -12 -19 -14 -32 -6l-125 79z"/>
    <glyph glyph-name="q" unicode="q" d="M344 285c8 9 16 9 25 0c9 -8 9 -15 0 -24l-101 -98c-8 -8 -15 -8 -24 0l-101 98c-9 9 -9 16 0 24c8 8 17 8 26 0l87 -79l88 79z"/>
    <glyph glyph-name="r" unicode="r" d="M169 163c-9 -8 -18 -8 -26 0s-8 16 0 25l101 97c9 9 16 9 24 0l101 -97c8 -9 8 -17 0 -25s-17 -8 -26 0l-87 80l-87 -80z"/>
    <glyph glyph-name="z" unicode="z" d="M256 480c141 0 256 -115 256 -256s-115 -256 -256 -256s-256 115 -256 256s115 256 256 256zM256 8c119 0 216 97 216 216s-97 216 -216 216s-216 -97 -216 -216s97 -216 216 -216zM336 240c9 0 16 -7 16 -14v-100c0 -7 -7 -14 -16 -14h-160c-9 0 -16 7 -16 14v100 c0 7 7 14 16 14h16v46c0 28 29 50 64 50s64 -22 64 -50v-46h16zM224 288v-48h64v48c0 14 -14 23 -32 23s-32 -9 -32 -23z"/>
    <glyph glyph-name="s" unicode="s" d="M112 480c9 0 16 -7 16 -16v-96c0 -9 -7 -16 -16 -16h-96c-9 0 -16 7 -16 16v96c0 9 7 16 16 16h96zM112 288c9 0 16 -7 16 -16v-96c0 -9 -7 -16 -16 -16h-96c-9 0 -16 7 -16 16v96c0 9 7 16 16 16h96zM112 96c9 0 16 -7 16 -16v-96c0 -9 -7 -16 -16 -16h-96 c-9 0 -16 7 -16 16v96c0 9 7 16 16 16h96zM496 480c9 0 16 -7 16 -16v-96c0 -9 -7 -16 -16 -16h-288c-9 0 -16 7 -16 16v96c0 9 7 16 16 16h288zM496 288c9 0 16 -7 16 -16v-96c0 -9 -7 -16 -16 -16h-288c-9 0 -16 7 -16 16v96c0 9 7 16 16 16h288zM496 96h-288 c-9 0 -16 -7 -16 -16v-96c0 -9 7 -16 16 -16h288c9 0 16 7 16 16v96c0 9 -7 16 -16 16z"/>
    <glyph glyph-name="t" unicode="t" d="M195 137l81 87l-81 88c-9 9 -9 17 0 25c9 9 16 9 24 0l99 -100c8 -9 8 -17 0 -25l-99 -100c-8 -9 -15 -9 -24 0c-9 8 -9 16 0 25z"/>
    <glyph glyph-name="u" unicode="u" d="M317 137c9 -9 9 -17 0 -25c-9 -9 -16 -9 -24 0l-99 100c-8 8 -8 16 0 25l99 100c8 9 15 9 24 0c9 -8 9 -16 0 -25l-80 -88l80 -87z"/>
  </font>
</defs>
</svg>
